Ant Man 2 and the Wasp (2018) 720p Hindi Dubbed (Clean) HDCAM x264 AAC by Full4movies

seeders: 36     leechers: 36     updated: 3 months ago

Downloading Seeding from 0 peers
of -
0 b/s / 0 b/s

Warning! Use a VPN When Downloading Torrents.


Your IP Address is 91.200.80.25 Location is UA.
Hide your IP ADDRESS with a VPN!

Get VPN App Mac Now!


    Ant Man 2 and the Wasp (2018) 720p Hindi Dubbed (Clean) HDCAM x264 AAC by Full4movies ( 942.26 MB )
    Ant Man 2 and the Wasp (2018) 720p Hindi Dubbed (Clean) HDCAM x264 AAC by Full4movies.mkv942.26 MB

    Writing library                : libebml v1.3.1 + libmatroska v1.4.2

    Video
    ID                             : 1
    Format                         : AVC
    Format/Info                    : Advanced Video Codec
    Format profile                 :
    [email protected]
    Format settings, CABAC         : Yes
    Format settings, RefFrames     : 3 frames
    Codec ID                       : V_MPEG4/ISO/AVC
    Duration                       : 1 h 47 min
    Bit rate                       : 1 066 kb/s
    Width                          : 720 pixels
    Height                         : 298 pixels
    Display aspect ratio           : 2.40:1
    Frame rate mode                : Variable
    Frame rate                     : 24.061 FPS
    Original frame rate            : 23.976 (24000/1001) FPS
    Color space                    : YUV
    Chroma subsampling             : 4:2:0
    Bit depth                      : 8 bits
    Scan type                      : Progressive
    Bits/(Pixel*Frame)             : 0.207
    Stream size                    : 818 MiB (87%)
    Writing library                : x264 core 152 r2851bm ba24899
    Default                        : Yes
    Forced                         : No

    Audio
    ID                             : 2
    Format                         : MPEG Audio
    Format version                 : Version 1
    Format profile                 : Layer 3
    Mode                           : Joint stereo
    Codec ID                       : A_MPEG/L3
    Codec ID/Hint                  : MP3
    Duration                       : 1 h 47 min
    Bit rate mode                  : Constant
    Bit rate                       : 160 kb/s
    Channel(s)                     : 2 channels
    Sampling rate                  : 44.1 kHz
    Frame rate                     : 38.281 FPS (1152 SPF)
    Compression mode               : Lossy
    Stream size                    : 123 MiB (13%)
    Writing library                : LAME3.98.2
    Language                       : Hindi
    Default                        : Yes
    Forced                         : Yes

    Screen Shoots



    Torrent Hash: 99F721FABA5CD0C39477C7E750199456054EBE09


    Num Trackers: 8 trackers




    TRACKER'S LIST COMPATIBLE WITH BITTORRENT CLIENT


    TrackerSeedersLeechersCompletedUpdated
    udp://tracker.opentrackr.org:1337 36 36 0 3 months
    udp://tracker.leechers-paradise.org:6969 33 8 0 3 months
    udp://tracker.coppersurfer.tk:6969 12 6 0 3 months
    http://mgtracker.org:2710/announce 1 9 0 3 months
    http://tracker1.itzmx.com:8080/announce 1 1 0 3 months
    http://open.acgtracker.com:1096/announce 1 1 0 3 months
    http://retracker.spb.ru/announce 0 7 0 3 months
    http://tracker.mg64.net:6881/announce 0 5 0 3 months

    No comments yet.