Ant-Man and the Wasp (2018) 720p English (Clean) HDCAM-Rip x264 AAC by Full4movies

seeders: 1     leechers: 0     updated: 3 months ago

Downloading Seeding from 0 peers
of -
0 b/s / 0 b/s

Warning! Use a VPN When Downloading Torrents.


Your IP Address is 79.110.19.222 Location is UA.
Hide your IP ADDRESS with a VPN!

Get VPN App Mac Now!


    Ant-Man and the Wasp (2018) 720p English (Clean) HDCAM-Rip x264 AAC by Full4movies ( 769.03 MB )
    Ant-Man and the Wasp (2018) 720p English (Clean) HDCAM-Rip x264 AAC by Full4movies.mkv769.03 MB

    Writing library                : libebml v1.3.1 + libmatroska v1.4.2

    Video
    ID                             : 1
    Format                         : AVC
    Format/Info                    : Advanced Video Codec
    Format profile                 :
    [email protected]
    Format settings, CABAC         : Yes
    Format settings, RefFrames     : 4 frames
    Codec ID                       : V_MPEG4/ISO/AVC
    Duration                       : 1 h 45 min
    Bit rate                       : 918 kb/s
    Width                          : 1 280 pixels
    Height                         : 536 pixels
    Display aspect ratio           : 2.40:1
    Frame rate mode                : Constant
    Frame rate                     : 29.970 (30000/1001) FPS
    Color space                    : YUV
    Chroma subsampling             : 4:2:0
    Bit depth                      : 8 bits
    Scan type                      : Progressive
    Bits/(Pixel*Frame)             : 0.045
    Stream size                    : 694 MiB (90%)
    Writing library                : x264 core 155 r2901 7d0ff22
    Language                       : English
    Default                        : Yes
    Forced                         : No

    Audio
    ID                             : 2
    Format                         : MPEG Audio
    Format version                 : Version 1
    Format profile                 : Layer 3
    Mode                           : Joint stereo
    Mode extension                 : MS Stereo
    Codec ID                       : A_MPEG/L3
    Codec ID/Hint                  : MP3
    Duration                       : 1 h 45 min
    Bit rate mode                  : Variable
    Bit rate                       : 96.0 kb/s
    Channel(s)                     : 2 channels
    Sampling rate                  : 48.0 kHz
    Frame rate                     : 41.667 FPS (1152 SPF)
    Compression mode               : Lossy
    Stream size                    : 73.0 MiB (9%)
    Writing library                : LAME3.99r
    Encoding settings              : -m j -V 4 -q 3 -lowpass 15.1 --abr 96
    Language                       : English
    Default                        : Yes
    Forced                         : No

    Screen Shoots



    Torrent Hash: D1DEFFD9C714D91545B20AA2A55A5BDFB5FAF5D5


    Num Trackers: 1 trackers




    TRACKER'S LIST COMPATIBLE WITH BITTORRENT CLIENT


    TrackerSeedersLeechersCompletedUpdated
    udp://thetracker.org:80/announce 1 0 0 3 months

    No comments yet.