Ant-Man and the Wasp (2018) 720p English HDTC x264 AAC by Full4movies

seeders: 22     leechers: 8     updated: 1 month ago

Downloading Seeding from 0 peers
of -
0 b/s / 0 b/s

Warning! Use a VPN When Downloading Torrents.


Your IP Address is 91.200.80.42 Location is UA.
Hide your IP ADDRESS with a VPN!

Get VPN App Mac Now!


    Ant-Man and the Wasp (2018) 720p English HDTC x264 AAC by Full4movies ( 899.07 MB )
    Ant-Man and the Wasp (2018) 720p English HDTC x264 AAC by Full4movies.mkv899.07 MB

    Writing library                : libebml v1.3.1 + libmatroska v1.4.2

    Video
    ID                             : 1
    Format                         : AVC
    Format/Info                    : Advanced Video Codec
    Format profile                 :
    [email protected]
    Format settings, CABAC         : Yes
    Format settings, RefFrames     : 4 frames
    Codec ID                       : V_MPEG4/ISO/AVC
    Duration                       : 1 h 47 min
    Bit rate                       : 1 088 kb/s
    Width                          : 1 280 pixels
    Height                         : 536 pixels
    Display aspect ratio           : 2.40:1
    Frame rate mode                : Variable
    Frame rate                     : 23.976 FPS
    Color space                    : YUV
    Chroma subsampling             : 4:2:0
    Bit depth                      : 8 bits
    Scan type                      : Progressive
    Bits/(Pixel*Frame)             : 0.066
    Stream size                    : 835 MiB (93%)
    Writing library                : x264 core 155 r2901 7d0ff22
    Default                        : Yes
    Forced                         : No
    Color range                    : Limited
    Color primaries                : BT.709
    Transfer characteristics       : BT.709
    Matrix coefficients            : BT.709

    Audio
    ID                             : 2
    Format                         : AAC
    Format/Info                    : Advanced Audio Codec
    Format profile                 : LC
    Codec ID                       : A_AAC
    Duration                       : 1 h 47 min
    Bit rate                       : 80.2 kb/s
    Channel(s)                     : 2 channels
    Channel positions              : Front: L R
    Sampling rate                  : 48.0 kHz
    Frame rate                     : 46.875 FPS (1024 SPF)
    Compression mode               : Lossy
    Delay relative to video        : -21 ms
    Stream size                    : 61.6 MiB (7%)
    Language                       : English
    Default                        : Yes
    Forced                         : No

    Screen Shoots



    Torrent Hash: 21CFD6C2BEE23682A7B2137B19DB06587AE22302


    Num Trackers: 9 trackers




    TRACKER'S LIST COMPATIBLE WITH BITTORRENT CLIENT


    TrackerSeedersLeechersCompletedUpdated
    udp://tracker.coppersurfer.tk:6969 22 8 0 1 month
    udp://tracker.leechers-paradise.org:6969 18 6 0 1 month
    udp://thetracker.org:80/announce 6 0 0 1 month
    http://announce.xxx-tracker.com:2710/announce 2 3 0 1 month
    http://explodie.org:6969/announce 1 3 0 1 month
    http://tracker1.itzmx.com:8080/announce 1 0 0 1 month
    http://therightsize.net:1337/announce 1 0 0 1 month
    http://mgtracker.org:2710/announce 0 1 0 1 month
    http://open.acgtracker.com:1096/announce 0 0 0 1 month

    No comments yet.